Jump to content
CiberSpace

[SVCPACK] [WMP Predestinado] [AC3] K-Lite Codec Pack 9.75

Recommended Posts

Muchas gracias por atender tan rápido a mi petición!

Me sale esto cuando le doy a reproducir algo:

1910201112726.th.png

Luego le doy a aceptar y se reproduce. Algunas veces me sale hasta 2 veces seguidas.

Share this post


Link to post
Share on other sites

No es lo que necesito. Encima es un beta y tampoco addon. Ese ya lo probaré. Gracias.

como sabes que no es lo que necesitas si no lo has probado?, lo de beta es "relativo" por que en realidad lo que hace mi pack es instalar de forma secuencial y en orden "los instaladores oficiales"...con un plus: que configura el ffdshow y MPC-HC para aprovecharlos al máximo, y un gran detalle los filtros ffdshow están presentes en más del 90% de todos los Packs de Codec que hay...por no decir todos...es la base. Ah y otra cosa no todo tiene que ser "Addon" para poder probarlo!

por que no haces algo más productivo: Subes el video con el que tienes problemas (el que se ve al revés) asi podemos probar y ver si reproducimos el mismo problema y buscar una solución

Share this post


Link to post
Share on other sites

No puedo subir 1.5gb de vídeo para que hagáis una prueba. Con probar con un vídeo Matroska os basta.

Lo que puedo hacer es dejaros el MediaInfo a lo mejor os sirve de algo:


General
Format : Matroska
File size : 1.39 GiB
Duration : 43mn 55s
Overall bit rate : 4 521 Kbps
Encoded date : UTC 2011-10-04 09:07:44
Writing application : mkvmerge v4.0.0 ('The Stars were mine') built on Jun 6 2010 16:18:42
Writing library : libebml v1.0.0 + libmatroska v1.0.0
Video
ID : 1
Format : AVC
Format/Info : Advanced Video Codec
Format profile : High@L3.1
Format settings, CABAC : No
Format settings, ReFrames : 2 frames
Codec ID : V_MPEG4/ISO/AVC
Duration : 43mn 55s
Bit rate : 4 047 Kbps
Width : 1 280 pixels
Height : 720 pixels
Display aspect ratio : 16:9
Frame rate : 23.976 fps
Color space : YUV
Chroma subsampling : 4:2:0
Bit depth : 8 bits
Scan type : Progressive
Bits/(Pixel*Frame) : 0.183
Stream size : 1.24 GiB (90%)
Language : English
Color primaries : BT.709-5, BT.1361, IEC 61966-2-4, SMPTE RP177
Transfer characteristics : BT.709-5, BT.1361
Matrix coefficients : BT.709-5, BT.1361, IEC 61966-2-4 709, SMPTE RP177
Audio
ID : 2
Format : AC-3
Format/Info : Audio Coding 3
Mode extension : CM (complete main)
Codec ID : A_AC3
Duration : 43mn 55s
Bit rate mode : Constant
Bit rate : 384 Kbps
Channel(s) : 6 channels
Channel positions : Front: L C R, Side: L R, LFE
Sampling rate : 48.0 KHz
Bit depth : 16 bits
Compression mode : Lossy
Stream size : 121 MiB (8%)
Language : English

Edited by kassyan_123

Share this post


Link to post
Share on other sites

No puedo subir 1.5gb de vídeo para que hagáis una prueba. Con probar con un vídeo Matroska os basta.

jeje es verdad, mira te paso este video en mkv pa que lo pruebes: http://dl.dropbox.co...0Driftermp4.mkv

a mi me va normal:

th_mkv.jpg

...y utilizo JCMultimedia Codec Pack :dancing: ...en Windows 7

Saludos!

Edited by JCM

Share this post


Link to post
Share on other sites

Haz probado reproducir con VLC? tiene Codecs internos!.. no necesita de Codec Packs...es otra alternativa altamente recomendable. El Windows Media Player es malísimo! sólo reproduce archivos muy conocidos..

Share this post


Link to post
Share on other sites

el error de archivo mkv no es error del WMP es error del K-Lite (un error conocido que hasta ahora no han podido reparar) pero otros packs de codecs como el de Shark's no presentan esta clase de error.

Share this post


Link to post
Share on other sites

el error de archivo mkv no es error del WMP es error del K-Lite (un error conocido que hasta ahora no han podido reparar) pero otros packs de codecs como el de Shark's no presentan esta clase de error.

este tipo de problemas posiblemente sea por conflictos de Codecs (mezcolanza de codecs que generalmente utilizan los Packs).... http://www.mundodivx...odecs/index.php

...por cierto no he tenido este tipo de problema con mi Pack :D (Ffdshow con MPC-HC) el ffdshow trae prácticamente todos los filtros (codecs) necesarios para reproducir audio y video, sólo es cuestión de configurarlo y junto con el MP-HC que es ligero y muy bueno hacen una buena combinación, los dos son de código abierto y están constantemente en desarrollo...

Share this post


Link to post
Share on other sites

no me veo de tanta publicidad...

dónde quedó lo que yo quería? se puede solucionar el problema que te puse en una captura o no CiberSpace? si no utilizo el VLC.

Edited by kassyan_123

Share this post


Link to post
Share on other sites

update.. bueno la verdad no sé si acaso integras addons de los updates o solo dejas las versiones "completas"... de todas formas gracias el addon... o si, una pregunta.. si acaso no hicieras addons de los updates.. el que yo haga el mio usando update.exe /SP- /VERYSILENT /NORESTART me funcionaria sin ser compatible con tu addon? siempre me ha funcionado pero usando tanto las versiones completas como updates hechos por mi (con el mismo comando en ambos casos)

Share this post


Link to post
Share on other sites

CiberSpace una consulta y disculpa la ignorancia

estos pack de codecs incluyen divx decoder y ac3

porque intale en un pc para codificar un video y no me aparecian tube que bajar divx que instala muchos componentes extra y ac3 filter...

Saludos!!

Share this post


Link to post
Share on other sites

este pack no los incluye. si lo deseas(an) puedo incluirlos en la actualización por hacer. porque estos pack no incluyen esos codecs. son solo para codificación de video de DIVX.

Share this post


Link to post
Share on other sites

este pack no los incluye. si lo deseas(an) puedo incluirlos en la actualización por hacer. porque estos pack no incluyen esos codecs. son solo para codificación de video de DIVX.

a gracias me queda claro, si se puede incluir seria muy bueno por lo menos me serviria mucho!!

Share this post


Link to post
Share on other sites

Join the conversation

You can post now and register later. If you have an account, sign in now to post with your account.

Guest
Reply to this topic...

×   Pasted as rich text.   Paste as plain text instead

  Only 75 emoji are allowed.

×   Your link has been automatically embedded.   Display as a link instead

×   Your previous content has been restored.   Clear editor

×   You cannot paste images directly. Upload or insert images from URL.


×
×
  • Create New...